#TITLE:LINUKS;
#SUBTITLE:;
#ARTIST:DJ Sharpnel;
#TITLETRANSLIT:;
#SUBTITLETRANSLIT:;
#ARTISTTRANSLIT:;
#CREDIT:;
#BANNER:linuks-bn.png;
#BACKGROUND:linuks-bg.png;
#LYRICSPATH:;
#CDTITLE:!ZaghurimvsExige.png;
#MUSIC:SharpnelSound - LINUKS.mp3;
#OFFSET:-0.069;
#SAMPLESTART:75.560;
#SAMPLELENGTH:12.000;
#SELECTABLE:YES;
#BPMS:0.000=190.000;
#STOPS:64.000=3.789
;
#BGCHANGES:;
// cache tags:
#FIRSTBEAT:0.000;
#LASTBEAT:420.000;
#SONGFILENAME:Songs/Music V.I.P ^_^/LINUKS- Zaghurim vs. Exige/linuks.sm;
#HASMUSIC:1;
#HASBANNER:1;
#MUSICLENGTH:141.043;
// end cache tags

//---------------dance-single - ----------------
#NOTES:
     dance-single:
     :
     Hard:
     13:
     1.000,1.000,1.000,0.000,1.000,1278.000,259.000,0.000,0.000,0.000:
1001
0000
0100
0000
0010
0100
1000
0100
0010
0100
0010
1000
0100
1000
0001
0010
,
0001
0000
0001
0000
0010
0100
0010
0100
1000
0100
1000
0010
0100
0010
0100
0010
,
0100
0000
0100
0000
0010
0100
0010
1000
0001
0010
0001
0100
0010
0100
1000
0100
,
0010
0100
0010
0000
0010
0100
0010
0100
0001
1000
0010
0100
0010
0001
0010
0000
,
0101
0000
1000
0000
0010
1000
0001
0100
0010
1000
0010
0001
1000
0001
0100
0010
,
0100
0000
0100
0000
0010
1000
0010
0100
0001
1000
0001
0010
1000
0010
1000
0010
,
1000
0000
1000
0000
0010
1000
0010
0001
0100
0010
0100
1000
0010
1000
0001
1000
,
0010
1000
0010
0000
0100
0010
1000
0010
1000
0100
0001
0010
1000
0010
0100
0000
,
1001
0000
0010
0000
1100
0010
0001
0010
1100
0010
0100
0001
1010
0001
1000
0100
,
1001
0000
1000
0000
0101
0010
0100
0010
1001
0010
0001
0100
0011
0100
0010
0100
,
0011
0000
0010
0000
1100
0010
0100
0001
1010
0100
1000
0010
1100
0010
0001
0010
,
1100
0010
0100
0000
1100
0010
0100
0010
1100
0001
0100
0010
0101
1000
0100
0000
,
1010
0000
0001
0000
0110
0001
1000
0010
1100
0001
0100
1000
0011
1000
0010
0100
,
0011
0000
0010
0000
0110
0001
0100
0010
1100
0001
1000
0100
0011
0100
0001
0100
,
0011
0000
0001
0000
0110
0001
0100
1000
0011
0100
0010
0001
0110
0001
1000
0001
,
1000
0100
0010
0001
0100
0010
0100
0001
0010
0100
1000
0010
0100
0010
1000
0100
,
1001
0000
0000
0000
0000
0000
0000
0000
0100
0010
0100
0010
1001
0000
1001
0000
,
1001
0000
1000
0010
0100
0010
1000
0010
0000
0100
0010
0100
0000
0100
0010
0000
,
1001
0000
0001
0100
0010
0100
0001
0100
0000
0010
0100
0010
0000
0010
0100
0000
,
0110
0000
0100
1000
0001
1000
0100
1000
0000
0001
1000
0001
0000
0001
1000
0000
,
0110
0000
1010
0000
0000
0000
0110
0000
0000
0000
0101
0000
0000
0000
1010
0100
,
1010
0000
0001
0010
1000
0010
0001
0010
0000
1000
0010
1000
0000
1000
0010
0000
,
0101
0000
0100
1000
0010
1000
0100
1000
0000
0010
1000
0010
0000
0010
1000
0000
,
1010
0000
1000
0001
0100
0001
1000
0001
0000
0100
0001
0100
0000
0100
0001
0000
,
1010
0000
0101
0000
0000
0000
0101
0000
0000
0000
0011
0000
0000
0000
0101
0010
,
0101
0000
0100
1000
0001
1000
0100
1000
0000
0001
1000
0001
0000
0001
1000
0000
,
0110
0000
0010
0001
1000
0001
0010
0001
0000
1000
0001
1000
0000
1000
0001
0000
,
1001
0000
0001
0100
0010
0100
0001
0100
0000
0010
0100
0010
0000
0010
0100
0000
,
1001
0000
1100
0000
0000
0000
1001
0000
0000
0000
0011
0000
0000
0000
1100
0001
,
1100
0000
0010
1000
0100
1000
0010
1000
0000
0100
1000
0100
0000
0100
1000
0000
,
0011
0000
0001
0100
1000
0100
0001
0100
0000
1000
0100
1000
0000
1000
0100
0000
,
1000
0100
0010
0001
0100
0010
0100
0001
0010
0100
1000
0010
0100
0010
1000
0100
,
0010
0001
0100
0001
0010
0100
1000
0010
1000
0100
0010
0001
0100
0010
0100
0010
,
1001
0000
0100
1000
0011
1000
0100
1000
0110
0001
1000
0001
0110
0001
1000
0000
,
0110
0000
0010
0001
1100
0001
0010
0001
0110
1000
0001
1000
0011
1000
0001
0000
,
1001
0000
0001
0100
0011
0100
0001
0100
1001
0010
0100
0010
1100
0010
0100
0000
,
1001
0000
1100
0000
0000
0000
1001
0000
0000
0000
0011
0000
0000
0000
1100
0001
,
1100
0000
0010
1000
0110
1000
0010
1000
0011
0100
1000
0100
0011
0100
1000
0000
,
0011
0000
0001
0100
0011
0100
0001
0100
0011
1000
0100
1000
0011
1000
0100
0000
,
1100
0000
0100
0010
1001
0010
0100
0010
1100
0001
0010
0001
1100
0001
0010
0000
,
1100
0000
0011
0000
0000
0000
0011
0000
0000
0000
1010
0000
0000
0000
0011
1000
,
0011
0000
0010
0001
1100
0001
0010
0001
0110
1000
0001
1000
0110
1000
0001
0000
,
0110
0000
0100
1000
0011
1000
0100
1000
0110
0001
1000
0001
1100
0001
1000
0000
,
1001
0000
1000
0010
1100
0010
1000
0010
1001
0100
0010
0100
0011
0100
0010
0000
,
1001
0000
0011
0000
0000
0000
1001
0000
0000
0000
1100
0000
0000
0000
0011
1000
,
0011
0000
0100
0001
0110
0001
0100
0001
1100
0010
0001
0010
1100
0010
0001
0000
,
1100
0000
1000
0010
1100
0010
1000
0010
1100
0001
0010
0001
1100
0001
0010
0000
,
1000
0100
0010
0001
0100
0010
0100
0001
0010
0100
1000
0010
0100
0010
1000
0100
,
0010
0001
0100
0001
0010
0100
1000
0010
1000
0100
0010
0001
1100
0001
1100
0001
,
1100
0010
0001
0000
0100
0010
0001
0000
1000
0100
0010
0000
0001
0000
0100
0010
,
0100
1000
0100
0000
0010
0100
0010
0000
0001
0000
0001
0100
0001
0000
0010
0000
,
0010
0001
0100
0000
0010
0100
1000
0000
0001
0010
0100
0000
1000
0000
0010
0100
,
0010
0001
0010
0000
0100
0010
0100
0000
1000
0000
1000
0001
1100
0000
0010
0000
,
1001
0100
0010
0000
0100
0010
0100
0000
0001
0010
0001
0000
0100
0000
0010
0100
,
0010
0100
0010
0000
0100
0010
1000
0000
0010
0000
0100
0010
0100
0000
0010
0000
,
0001
0010
0100
0000
0010
0100
0010
0000
1000
0100
1000
0000
0010
0000
0100
0010
,
0100
0110
0000
1001
1010
1100
1010
1001
,
1001
0010
0100
0000
1000
0010
0100
0000
0001
1000
0010
0000
0100
0000
1000
0010
,
1000
0001
1000
0000
0010
1000
0010
0000
0100
0000
0100
1000
0100
0000
0010
0000
,
0010
0100
1000
0000
0010
1000
0001
0000
0100
0010
1000
0000
0001
0000
0010
1000
,
0010
0100
0010
0000
1000
0010
1000
0000
0001
0000
0001
0100
0011
0000
1000
0000
,
0011
1000
0010
0000
1000
0010
1000
0000
0100
0010
0100
0000
1000
0000
0010
1000
,
0010
1000
0010
0000
1000
0010
0001
0000
0010
0000
1000
0010
1000
0000
0010
0000
,
0100
0001
0010
0000
0100
0010
1000
0000
1000
0010
0100
0000
0001
0000
1000
0010
,
0100
0000
0010
0000
0010
0001
1000
0000
0010
0000
0100
0010
1100
0000
0001
0000
,
0110
1000
0100
0000
0010
0001
0010
0000
0100
0010
0100
0000
1000
0000
0100
0010
,
1000
0001
1000
0000
0100
0010
0001
0000
0010
0000
0100
0010
0001
0000
0010
0000
,
1000
0100
0010
0000
0100
0010
0001
0000
0010
0001
0010
0000
0100
0000
1000
0001
,
1000
0001
1000
0000
0100
0010
0100
0000
0010
0000
0100
0010
1001
0000
0010
0000
,
1001
0100
0010
0001
0100
0010
0100
0001
0010
0100
1000
0010
0100
0010
1000
0100
,
0010
0001
0100
0001
0010
0100
1000
0010
1000
0100
0010
0001
1000
0001
0010
0100
,
1000
0100
0010
0001
0100
0010
0100
0001
0010
0100
1000
0010
0100
0010
0100
0010
,
0100
1001
0000
1010
1100
0011
0110
1001
,
0110
0001
0010
0000
1100
0010
0100
0000
0011
1000
0010
0000
0101
0000
1000
0010
,
1100
0001
1000
0000
0011
1000
0010
0000
1100
0000
0100
1000
0101
0000
0010
0000
,
0011
0100
1000
0000
0011
1000
0001
0000
0101
0010
1000
0000
0101
0000
0010
1000
,
0011
0100
0010
0000
1100
0010
1000
0000
0011
0000
0001
0100
1001
0000
0110
0000
,
0101
1000
0010
0000
1100
0010
1000
0000
0101
0010
0100
0000
1001
0000
0010
1000
,
0011
1000
0010
0000
1100
0010
0001
0000
0110
0000
1000
0010
1100
0000
0010
0000
,
0101
0010
1000
0000
0011
1000
0010
0000
0101
1000
0001
0000
0110
0000
1000
0010
,
1000
0100
1000
0000
0010
0100
0010
0000
0100
0000
0010
0001
0010
0000
1000
0000
,
0101
0010
1000
0000
0101
0010
1000
0000
0110
0001
0010
0000
1001
0000
0001
0010
,
1001
0100
0001
0000
0110
0001
0010
0000
0101
0000
1000
0001
1100
0000
0010
0000
,
0110
1000
0001
0000
1010
0001
0100
0000
1100
0010
0001
0000
1100
0000
0010
0001
,
0110
1000
0010
0000
0101
0010
0001
0000
0110
0000
0100
1000
0110
0000
1001
0000
,
0110
0001
0010
0000
0101
0010
0001
0000
1100
0010
1000
0000
0011
0000
0010
0001
,
1100
0001
0010
0000
1001
0010
0100
0000
1010
0000
0001
0010
0101
0000
0010
0000
,
1010
0100
0010
0000
1100
0010
0001
0000
0101
0010
1000
0000
0110
0000
0001
0010
,
1100
0011
0000
1100
0110
1010
0011
0110
,
1100
0001
1000
0000
0011
0100
0010
0000
1100
0010
1000
0000
0011
0000
1000
0010
,
1001
0100
0001
0000
1100
0010
0100
0000
0011
0000
1000
0010
0101
0000
0010
0000
,
0101
1000
0010
0000
1100
0010
0100
0000
0011
0100
0010
0000
1100
0000
0001
0100
,
0011
0100
0001
0000
1100
0010
1000
0000
0011
0000
1000
0010
0101
0000
1010
0000
,
1001
0100
0010
0000
1100
0010
0001
0000
1100
0010
0100
0000
0011
0000
0100
0010
,
1100
0010
0100
0000
1001
0100
0010
0000
1100
0000
0001
0100
1010
0000
0001
0000
,
1001
0010
0100
0000
0011
0100
1000
0000
0011
0100
0010
0000
1100
0000
0010
0100
,
0011
0100
0010
0000
0100
0010
0100
0000
0010
0000
1000
0010
0100
0000
1000
0000
,
0101
0010
0100
0000
1010
0001
1000
0000
0101
1000
0100
0000
1010
0000
0100
1000
,
0110
0001
0010
0000
0101
1000
0001
0000
1010
0000
0100
1000
0011
0000
1000
0000
,
0011
0100
1000
0000
0101
1000
0001
0000
1010
0001
1000
0000
0101
0000
0010
0001
,
1010
0001
0010
0000
0101
1000
0100
0000
1010
0000
0100
1000
0011
0000
1100
0000
,
0110
0001
1000
0000
0101
1000
0010
0000
0101
1000
0001
0000
1010
0000
0001
0010
,
1000
0100
0010
0001
0100
0010
0100
0001
0010
0100
1000
0010
0100
0010
1000
0100
,
0010
0001
1000
0001
0010
0100
1000
0001
1000
0100
0010
0001
0100
0001
0010
0100
,
1000
0010
0100
0001
0100
0010
0100
0010
1000
0010
0100
0001
0100
0010
1000
0010
,
1001
0000
0000
0000
;

//---------------dance-single - ----------------
#NOTES:
     dance-single:
     :
     Challenge:
     13:
     1.000,1.000,1.000,0.000,1.000,1351.000,290.000,0.000,0.000,0.000:
0001
0000
0001
0000
0010
0100
0010
0000
0001
0100
0010
0001
0010
1000
0100
0010
,
1001
0000
0001
0000
0001
0010
0100
0000
0001
1000
0100
0010
0100
0010
0001
0100
,
1001
0000
1000
0000
1000
0100
0010
0000
0010
0001
0010
0001
0100
0010
0001
0010
,
1001
0010
0100
0000
0010
0100
0010
0000
0001
0010
0001
1000
0010
0100
1000
0000
,
1001
0000
1000
0000
0010
1000
0001
0000
0010
0100
1000
0001
1000
0100
0010
1000
,
0101
0000
0001
0000
0010
1000
0001
0000
0001
0010
0100
0001
0010
0100
0010
0001
,
1100
0000
0100
0000
0100
0010
0100
0000
0001
1000
0100
0001
0100
0010
0100
0010
,
1001
0010
0100
0000
0100
1000
0001
0000
0100
0010
0001
1000
0100
0010
1000
0000
,
1001
0000
0001
0000
0110
1000
0001
0000
1100
0010
0001
0100
1001
0010
0100
0010
,
1001
0000
0001
0000
1100
0001
0010
0000
1100
0010
0001
0010
1001
0100
0010
0001
,
1100
0000
1000
0000
0011
0100
1000
0000
0101
1000
0100
0010
1001
0010
0100
0001
,
1010
0100
1000
0000
0011
0100
1000
0000
1001
0100
1000
0010
0101
0010
1000
0000
,
0011
0000
1000
0000
0110
0001
0010
0000
1001
0100
0010
1000
0011
0100
1000
0100
,
0011
0000
0001
0000
1100
0010
0001
0000
0101
0010
0001
1000
0101
0010
0001
0100
,
1001
0010
1000
0100
0001
1000
0100
0010
1000
0010
0001
1000
0100
0001
0100
0010
,
0001
1000
0100
0001
1000
0010
0001
1000
0001
0010
1000
0001
1000
0100
0010
0100
,
1001
0000
0000
0000
0000
0000
0000
0000
1000
0001
0100
0001
0010
0000
1000
0000
,
1010
0000
1000
0000
0011
0100
1000
0000
1001
0010
0100
0001
1100
0010
0001
0000
,
1010
0000
1000
0000
1001
0010
0100
0000
0011
0100
1000
0010
1001
0100
0010
0100
,
1001
0000
0001
0000
1001
0010
0100
0000
0011
0100
1000
0010
1001
0010
0100
0010
,
1001
0100
1000
0000
1001
0100
0010
0000
0011
0100
1000
0010
1001
0100
1001
0000
,
1100
0000
0001
0000
0110
0001
1000
0000
1001
0010
0100
0010
1001
0010
0100
1000
,
0011
0000
0001
0000
1001
0010
0100
0000
1010
0100
0001
0010
1100
0001
0010
0100
,
1001
0000
0001
0000
0011
0100
1000
0000
1001
0010
0100
0010
1001
0100
0010
1000
,
0101
0010
0001
0000
0100
0010
0001
0000
0100
0010
0001
0100
1000
0100
0010
0000
,
1001
0000
0001
0000
1010
0100
0010
0000
0011
0100
1000
0010
1001
0010
0100
0010
,
1001
0000
1000
0000
0110
0001
1000
0000
0011
0100
1000
0010
1001
0100
0010
0100
,
1001
0000
0100
0000
0011
0100
1000
0000
1001
0100
0010
0001
1100
0010
0001
1000
,
0101
0000
0010
0000
0011
0100
1000
0000
1010
0001
1000
0001
1010
0100
1010
0000
,
0101
0000
0001
0000
0011
1000
0100
0000
1001
0100
0010
0001
1010
0100
0010
0001
,
0110
0000
0100
0000
0101
0010
0100
0000
0011
0100
1000
0010
1001
0100
0010
0001
,
1010
0000
1000
0000
0110
0001
1000
0000
1001
0100
0010
1000
0101
0010
1000
0100
,
1001
0100
0010
0001
1000
0100
0010
0001
0010
0100
1000
0001
0010
0100
1000
0100
,
1001
0000
0001
0000
0011
0100
1000
0000
1001
0100
0010
0001
1010
0100
0010
0001
,
0110
0000
0100
0000
0011
0100
1000
0000
1001
0010
0100
0010
1001
0100
0010
0100
,
1001
0000
1000
0000
0011
0100
1000
0000
1001
0010
0100
1000
0011
0100
1000
0100
,
0011
0100
1000
0000
0011
0100
1000
0000
1001
0100
0010
1000
0011
0100
1001
0000
,
1100
0000
0001
0000
1001
0010
0100
0000
0011
0100
1000
0010
0101
0010
0100
1000
,
0011
0000
0100
0000
0011
0100
1000
0000
0110
0001
0010
0100
0011
0100
1000
0010
,
0101
0000
1000
0000
1010
0001
0010
0000
0011
1000
0100
1000
0011
0100
1000
0100
,
0011
0100
1000
0000
0001
0010
0100
0000
0010
0100
1000
0010
0001
0100
1000
0000
,
1001
0000
0010
0000
0011
0100
0001
0000
1001
0010
0001
0100
1010
0001
0010
0001
,
0110
0000
0001
0000
0011
0100
0010
0000
1001
0010
0001
1000
0110
0001
1000
0100
,
0011
0000
0100
0000
0110
0001
0010
0000
1001
0010
0100
1000
0101
0010
0100
1000
,
0011
0100
1000
0000
1001
0010
0001
0000
1010
0100
0010
0001
0110
1000
0110
0000
,
0011
0000
0001
0010
1001
0010
0001
0000
0011
0100
0010
0100
1001
0010
0100
1000
,
0011
0000
0100
0010
1001
0100
0010
0000
0101
0010
0100
1000
0011
1000
0100
0010
,
1100
0010
1000
0100
0010
0001
0100
0001
0010
0100
0010
0100
0010
0001
1000
0001
,
0010
0100
1000
0001
0010
0100
0001
0010
1000
0001
0100
0010
1000
0010
0100
0010
,
1001
0010
0100
0000
0100
0010
1000
0000
1000
0100
0010
0000
0100
0000
0001
1000
,
0001
0010
0100
0000
0010
0100
1000
0000
1000
0000
1000
0100
0010
0000
0010
0000
,
0010
0100
1000
0000
0010
0100
1000
0000
0001
0010
0100
0000
0001
0000
0001
0010
,
0100
0010
0001
0000
0100
0010
0001
0000
0010
0000
1000
0100
1001
0000
0001
0000
,
1001
0100
0010
0000
0010
0100
0010
0000
1000
0001
1000
0000
1000
0000
1000
0100
,
0010
0100
0010
0000
1000
0001
1000
0000
0001
0000
0001
0100
0010
0000
0010
0000
,
0010
0100
1000
0000
0010
0001
1000
0000
0001
0100
1000
0000
0001
0000
1000
0100
,
0010
0011
0000
0011
0011
0011
0011
0011
,
0011
0100
1000
0010
0100
0001
0010
0100
0010
0001
1000
0100
0010
0001
0010
0100
,
1000
0001
0010
0001
1000
0100
1000
0010
0100
0010
0001
0010
0001
1000
0100
1000
,
0100
0010
1000
0001
0010
0001
0010
0100
1000
0100
1000
0100
0010
0100
0010
0001
,
0010
1000
0001
0010
0001
0100
0001
0010
0001
1000
0010
0100
1001
0100
0010
0100
,
1001
0010
1000
0010
0100
0010
0001
0010
0100
0010
0001
1000
0100
0010
0100
0010
,
0001
1000
0001
0100
0001
0010
0100
1000
0010
1000
0100
0010
0100
0010
0001
1000
,
0100
0010
0001
0100
0010
1000
0100
0010
0001
0100
0010
0001
0100
0010
0001
1000
,
0100
0001
0100
1000
0010
0100
0001
0010
0100
0001
0010
0100
0011
0100
1000
0100
,
0011
1000
0100
1000
0001
0010
0100
0010
0001
1000
0001
1000
0100
0010
0100
0010
,
0001
0100
0010
0100
0010
0001
1000
0001
0100
0001
0010
0001
0010
0100
0001
0100
,
0010
0100
1000
0001
1000
0010
1000
0100
1000
0100
0010
1000
0010
0100
1000
0001
,
0010
0100
0001
0010
0100
0010
0001
0100
0010
1000
0001
1000
0101
0010
0001
1000
,
0101
0010
0100
1000
0001
1000
0100
0010
1000
0010
0001
1000
0001
0010
0100
0010
,
0100
0001
0010
0001
0100
0010
0100
0010
0001
1000
0001
1000
0010
0100
0001
1000
,
0001
0100
0010
1000
0100
0001
0010
1000
0100
0001
1000
0010
0100
0001
1000
0010
,
0001
1100
0000
1100
1100
1100
1100
1100
,
1100
0010
0001
0000
0011
0100
0010
0000
1001
0100
0010
0000
0011
0000
0010
0100
,
1001
0010
0100
0000
0110
0001
1000
0000
1001
0000
1000
0100
0011
0000
0001
0000
,
1001
0010
0001
0000
1010
0100
0010
0000
0110
0001
1000
0000
0011
0000
0001
0010
,
1100
0010
0001
0000
0011
0100
1000
0000
0011
0000
1000
0100
1001
0000
0011
0000
,
0011
1000
0100
0000
0011
0100
0001
0000
1100
0010
0001
0000
0110
0000
0001
0010
,
1001
0010
0001
0000
1001
0100
1000
0000
0011
0000
0001
0010
1100
0000
1000
0000
,
0110
0011
1001
1010
,
1100
0000
1000
0000
1000
0100
0001
0000
1000
0000
0001
0010
0100
0000
1000
0000
,
1100
0000
0010
0000
1100
0010
0100
0000
0011
0100
1000
0000
1001
0000
0010
0100
,
1001
0100
0010
0000
1001
0010
0001
0000
1100
0000
0001
0010
1100
0000
0001
0000
,
0101
0000
0001
0000
0101
0010
0001
0000
1010
0100
1000
0000
1001
0000
0001
0010
,
1100
0001
0010
0000
1001
0010
0100
0000
0101
0000
0001
0010
1100
0000
0011
0000
,
0110
0000
0001
0000
1001
0010
0001
0000
0101
0010
0001
0000
1010
0000
0001
0010
,
1100
0010
0100
0000
0101
1000
0100
0000
1001
0000
1000
0100
0011
0000
0001
0000
,
0011
0000
0001
0000
0011
0100
1000
0000
1100
0010
0001
0000
0011
0000
0001
0010
,
1100
0110
0000
0110
0110
0110
0110
0110
,
1001
0010
0100
0000
1001
0100
0010
0000
0011
0100
0001
0000
1100
0000
0100
1000
,
0110
0001
0010
0000
0011
0100
0001
0000
0011
0000
0001
0010
1100
0000
1000
0000
,
1100
0010
0001
0000
0011
1000
0100
0000
1100
0001
0010
0000
0110
0000
1000
0100
,
1010
0100
1000
0000
1100
0010
0001
0000
1100
0000
0001
0010
0101
0000
0011
0000
,
1010
0100
0010
0000
1001
0010
0100
0000
1010
0100
0010
0000
0101
0000
0001
0100
,
1010
0100
0001
0000
0101
0010
1000
0000
0101
0000
0010
0001
1100
0000
0001
0000
,
1001
0010
0100
0000
1001
0100
0010
0000
1001
0010
0100
0000
1001
0000
0100
0010
,
1001
0000
0010
0000
0100
0010
0100
0000
0010
0000
0010
0100
0010
0000
0010
0000
,
1001
0010
0100
0000
1001
0010
0100
0000
0011
0100
1000
0000
0011
0000
0001
0010
,
1100
0010
1000
0000
1001
0100
0010
0000
0011
0000
0100
0010
1001
0000
0010
0000
,
1100
0010
0001
0010
1100
0001
0010
0000
0011
0100
1000
0000
1001
0000
0001
0010
,
1001
0100
1000
0000
0011
0100
1000
0000
1100
0000
1000
0100
0011
0000
0101
0000
,
1001
0100
0010
1000
0001
0100
1000
0001
0100
0010
0100
1000
0001
0100
0001
0010
,
1000
0001
0010
0001
1000
0100
0010
0001
0100
0001
1000
0100
0010
0100
1000
0001
,
0010
0100
1000
0010
0100
0001
0010
0100
1000
0100
0010
0001
0100
0010
0100
0010
,
1001
0010
0100
0010
1001
0100
1000
0100
0011
1000
0100
1000
0011
0100
0010
0100
,
1001
0000
0000
0000
;
